God's Not Dead 2014 BRRip 720p [English_Latino]




College philosophy professor Mr. Radisson\'s curriculum is challenged by his new student, Josh, who believes God exists.
-----------------------------------------------------
Josh Wheaton (Shane Harper) es un joven estudiante que ha sido educado en la fe cristiana. Cree en la Biblia y, por supuesto, cree en Dios. Hasta que, un día, su profesor de filosofía (Kevin Sorbo) empieza a cuestionar en clase lo que dicen las Sagradas Escrituras. Al principio, Josh se muestra enfadado porque nunca había dudado de la existencia de Dios. Pero ahora, tras oir las explicaciones de su profesor, siente el impulso de cambiar radicalmente de mentalidad.

Dios No Está Muerto (2014)
*Audio English + Español Latino

General
Format                                   : Matroska
Format version                           : Version 2
File size                                : 1.97 GiB
Duration                                 : 1h 52mn
Overall bit rate                         : 2 501 Kbps
Encoded date                             : UTC 2014-07-29 23:25:50
Writing application                      : mkvmerge v6.5.0 (\'Isn\'t she lovely\') built on Oct 20 2013 12:50:05
Writing library                          : libebml v1.3.0 + libmatroska v1.4.1
Video

ID                                       : 1
Format                                   : AVC
Format/Info                              : Advanced Video Codec
Format profile                           : [email protected]
Format settings, CABAC                   : Yes
Format settings, ReFrames                : 4 frames
Codec ID                                 : V_MPEG4/ISO/AVC
Duration                                 : 1h 52mn
Bit rate                                 : 1 603 Kbps
Width                                    : 1 280 pixels
Height                                   : 720 pixels
Display aspect ratio                     : 16:9
Frame rate mode                          : Constant
Frame rate                               : 23.976 fps
Color space                              : YUV
Chroma subsampling                       : 4:2:0
Bit depth                                : 8 bits
Scan type                                : Progressive
Bits/(Pixel*Frame)                       : 0.073
Stream size                              : 1.22 GiB (62%)
Writing library                          : x264 core 138 r2358 9e941d1
Default                                  : Yes
Forced                                   : No
Audio #1
ID                                       : 2
Format                                   : AC-3
Format/Info                              : Audio Coding 3
Mode extension                           : CM (complete main)
Format settings, Endianness              : Big
Codec ID                                 : A_AC3
Duration                                 : 1h 52mn
Bit rate mode                            : Constant
Bit rate                                 : 448 Kbps
Channel(s)                               : 6 channels
Channel positions                        : Front: L C R, Side: L R, LFE
Sampling rate                            : 48.0 KHz
Bit depth                                : 16 bits
Compression mode                         : Lossy
Stream size                              : 361 MiB (18%)
Language                                 : English
Default                                  : Yes
Forced                                   : No
Audio #2
ID                                       : 3
Format                                   : AC-3
Format/Info                              : Audio Coding 3
Mode extension                           : CM (complete main)
Format settings, Endianness              : Big
Codec ID                                 : A_AC3
Duration                                 : 1h 52mn
Bit rate mode                            : Constant
Bit rate                                 : 448 Kbps
Channel(s)                               : 6 channels
Channel positions                        : Front: L C R, Side: L R, LFE
Sampling rate                            : 48.0 KHz
Bit depth                                : 16 bits
Compression mode                         : Lossy
Stream size                              : 361 MiB (18%)
Language                                 : Spanish
Default                                  : No
Forced                                   : No





Comparte esta entrada

God's Not Dead 2014 BRRip 720p [English_Latino]
Para poder comentar necesitas Registrarte. O ya tienes usuario?, Iniciar Sesión!
No hay comentarios. ¡Sé el primero!
Autor
Ver perfil de Callixtus Callixtus
Hombre Curioso Curioso  Seguir  Mensaje
0 115 4
Nuevo Mensaje
Para:
Titulo: